#TITLE:BATTLE TRAIN;
#SUBTITLE:;
#ARTIST:Sota Fujimori;
#TITLETRANSLIT:;
#SUBTITLETRANSLIT:;
#ARTISTTRANSLIT:;
#CREDIT:;
#BANNER:battletrain.png;
#BACKGROUND:battletrain-bg.png;
#LYRICSPATH:;
#CDTITLE:!HSTTitle.png;
#MUSIC:07. BATTLE TRAIN.mp3;
#OFFSET:1.440;
#SAMPLESTART:37.495;
#SAMPLELENGTH:12.000;
#SELECTABLE:YES;
#BPMS:0.000=160.020;
#STOPS:;
#BGCHANGES:;
// cache tags:
#FIRSTBEAT:4.000;
#LASTBEAT:452.000;
#SONGFILENAME:Songs/Music V.I.P ^_^/Battle Train- HST/battletrain.sm;
#HASMUSIC:1;
#HASBANNER:1;
#MUSICLENGTH:168.045;
// end cache tags

//---------------dance-single - ----------------
#NOTES:
     dance-single:
     :
     Challenge:
     13:
     1.000,1.000,1.000,0.137,1.000,1518.000,309.000,23.000,0.000,0.000:  // measure 1
0000
0000
0000
0000
,  // measure 2
1001
0000
0010
0000
1100
0001
0010
0000
0100
0000
1000
0000
0101
0010
1000
0000
,  // measure 3
1010
0000
0100
0000
0011
0100
1000
0000
0011
1000
0010
0100
1010
0100
0001
0000
,  // measure 4
1001
0000
0100
0000
0011
0100
1000
0000
0010
0000
1000
0000
0110
0001
1000
0000
,  // measure 5
0101
0000
0010
0000
1100
0001
0100
0000
0110
0001
1000
0100
0011
1000
0100
0000
,  // measure 6
0011
0000
0100
0000
1010
0100
0001
0000
1000
0000
0010
0000
0101
0010
1000
0000
,  // measure 7
0101
0000
0010
0000
1100
0010
0001
0000
1100
0001
0010
0100
1001
0100
0010
0000
,  // measure 8
1001
0000
0010
0000
1100
0001
0010
0000
0100
0000
1000
0000
0101
0010
1000
0000
,  // measure 9
1010
0000
0100
0000
0011
0100
1000
0000
0011
1000
0010
0100
1010
0001
0010
0100
,  // measure 10
1001
0010
0100
1000
0011
0100
1000
0010
1100
0001
1000
0010
1100
0010
0100
0001
,  // measure 11
0110
1000
0001
1000
0011
0100
0001
0010
1100
0001
0100
0010
1100
0010
0100
0001
,  // measure 12
0110
1000
0100
0010
0101
0010
1000
0100
1001
0010
1000
0100
0011
1000
0001
1000
,  // measure 13
0110
0001
1000
0010
1100
0010
0001
1000
0101
0010
0100
0010
1001
0100
0010
0100
,  // measure 14
0011
1000
0010
0100
0011
1000
0010
1000
0110
0001
1000
0001
1010
0100
0001
0100
,  // measure 15
0011
0100
1000
0100
1001
0100
1000
0001
0110
1000
0010
0100
1010
0100
0001
0100
,  // measure 16
1001
0010
0100
1000
0011
0100
1000
0001
1010
0100
1000
0001
0110
0001
1000
0100
,  // measure 17
2002
0000
0000
3003
,  // measure 18
1010
0000
0100
0001
0000
0000
0101
0000
0101
0010
1000
0200
0000
0000
0300
0000
,  // measure 19
0110
0000
0000
0000
0100
0000
1000
0000
0000
0000
0000
0000
1010
0000
0000
0000
0101
0000
0010
0000
1000
0000
0100
0010
0001
1000
0010
0100
0001
1000
0000
0000
,  // measure 20
1001
0000
0001
0010
0000
0000
0110
0000
1100
0001
1000
0020
0000
0000
0030
0000
,  // measure 21
1010
0000
0000
0000
0100
0000
0001
0000
0000
0000
0000
0000
0101
0000
0000
0000
1010
0000
0100
0000
0001
0000
0010
0100
1000
0010
0100
0001
1000
0000
0000
0000
,  // measure 22
0110
0000
0100
0001
0000
0000
0011
0000
0110
1000
0001
2000
0000
0000
3000
0000
,  // measure 23
1001
0000
0000
0000
0001
0000
0100
0000
0000
0000
0000
0000
1010
0000
0000
0000
1001
0000
0010
0000
0100
0000
1000
0001
0010
0100
1000
0010
0100
0000
0000
0000
,  // measure 24
0011
0000
0001
1000
0000
0000
1100
0000
0101
0010
1000
0200
0000
0000
0300
0000
,  // measure 25
0110
0000
0000
0000
0100
0000
1000
0000
0000
0000
0000
0000
1010
0000
0000
0000
0101
0000
0010
0000
1000
0000
0100
0010
0001
1000
0010
0100
0001
0000
0000
0000
,  // measure 26
1010
0000
0100
0001
0000
0000
0101
0000
0101
0010
1000
0200
0000
0000
0300
0000
,  // measure 27
0110
0000
0000
0000
0100
0000
1000
0000
0000
0000
0000
0000
1010
0000
0000
0000
0101
0000
0010
0000
1000
0000
0100
0010
0001
1000
0010
0100
0001
0000
0000
0000
,  // measure 28
1010
0000
0100
0001
0000
0000
0101
0000
0101
0010
1000
0200
0000
0000
0300
0000
,  // measure 29
0110
0000
0000
0000
0100
0000
1000
0000
0000
0000
0000
0000
1010
0000
0000
0000
0101
0000
0010
0000
1000
0000
0100
0010
0001
1000
0010
0100
0001
0000
0000
0000
,  // measure 30
1010
0000
0100
0001
0000
0000
0101
0000
0101
0010
1000
0200
0000
0000
0300
0000
,  // measure 31
0110
0000
0000
0000
0100
0000
1000
0000
0000
0000
0000
0000
1010
0000
0000
0000
0101
0000
0010
0000
1000
0000
0100
0010
0001
1000
0010
0100
0001
0000
0000
0000
,  // measure 32
1010
0000
0100
0001
0000
0000
0101
0000
0101
0010
1000
0200
0000
0000
0300
0000
,  // measure 33
0110
0000
0000
0000
0100
0000
1000
0000
0000
0000
0000
0000
1010
0000
0000
0000
0101
0000
0010
0000
1000
0000
0100
0010
0001
1000
0010
0100
0001
0000
0000
0000
,  // measure 34
1010
0000
0100
0001
0000
0000
0101
0000
0101
0010
1000
0200
0000
0000
0300
0000
,  // measure 35
0110
0000
0000
0000
0100
0000
1000
0000
0000
0000
0000
0000
1010
0000
0000
0000
0101
0000
0010
0000
1000
0000
0100
0010
0001
1000
0010
0100
0001
0000
0000
0000
,  // measure 36
0101
0000
0010
1000
0000
0000
1001
0000
1010
0100
0001
0020
0000
0000
0030
0000
,  // measure 37
0110
0000
0000
0000
0010
0000
0001
0000
0000
0000
0000
0000
0101
0000
0000
0000
1010
0000
0100
0000
0001
0000
0010
0100
1000
0001
0100
0010
1000
0000
0000
0000
,  // measure 38
1001
0000
1000
0100
0000
0000
0110
0000
0011
1000
0001
0200
0000
0000
0300
0000
,  // measure 39
0101
0000
0000
0000
0010
0000
1000
0000
0000
0000
0000
0000
1010
0000
0000
0000
0101
0000
0010
0000
1000
0000
0100
0010
0001
0100
0010
1000
0001
0000
0000
0000
,  // measure 40
0110
0000
0010
1000
0000
0000
1100
0000
0110
0001
1000
0002
0000
0000
0003
0000
,  // measure 41
1001
0000
0000
0000
1000
0000
0010
0000
0000
0000
0000
0000
0101
0000
0000
0000
1001
0000
0100
0000
0010
0000
0001
1000
0100
0010
0001
0100
0010
0000
0000
0000
,  // measure 42
1100
0000
1000
0001
0000
0000
0011
0000
1010
0100
0001
0020
0000
0000
0030
0000
,  // measure 43
0110
0000
0000
0000
0010
0000
0001
0000
0000
0000
0000
0000
0101
0000
0000
0000
1010
0000
0100
0000
0001
0000
0010
0100
1000
0001
0100
0010
1000
0001
0000
0000
,  // measure 44
0101
0000
0010
1000
0000
0000
1010
0000
1010
0100
0001
0020
0000
0000
0030
0000
,  // measure 45
0110
0000
0000
0000
0010
0000
0001
0000
0000
0000
0000
0000
0101
0000
0000
0000
1010
0000
0100
0000
0001
0000
0010
0100
1000
0001
0100
0010
1000
0000
0000
0000
,  // measure 46
0101
0000
0010
1000
0000
0000
1010
0000
1010
0100
0001
0020
0000
0000
0030
0000
,  // measure 47
0110
0000
0000
0000
0010
0000
0001
0000
0000
0000
0000
0000
0101
0000
0000
0000
1010
0000
0100
0000
0001
0000
0010
0100
1000
0001
0100
0010
1000
0000
0000
0000
,  // measure 48
0101
0000
0010
1000
0000
0000
1010
0000
1010
0100
0001
0020
0000
0000
0030
0000
,  // measure 49
0110
0000
0000
0000
0010
0000
0001
0000
0000
0000
0000
0000
0101
0000
0000
0000
1010
0000
0100
0000
0001
0000
0010
0100
1000
0001
0100
0010
1000
0000
0000
0000
,  // measure 50
1001
0000
0011
0000
1001
0010
1100
0000
1001
0000
0010
2000
0000
0000
0000
3000
,  // measure 51
1001
0000
0000
0000
0100
0000
1001
0000
0000
0000
0000
0000
0100
0000
0000
0000
1001
0000
0000
0000
0100
0000
0010
0001
1000
0010
0100
0001
1000
0000
0000
0000
,  // measure 52
1001
0000
0011
0000
0110
0001
1100
0000
0000
0000
0010
2000
0000
0000
0000
3000
,  // measure 53
1001
0000
0000
0000
0100
0000
1001
0000
0000
0000
0000
0000
0100
0000
0000
0000
1001
0000
0000
0000
0100
0000
0010
0001
1000
0010
0100
0001
1000
0000
0000
0000
,  // measure 54
1100
0000
1001
0000
0011
1000
0110
0000
0000
0000
1000
0002
0000
0000
0000
0003
,  // measure 55
0011
0000
0000
0000
0010
0000
1100
0000
0000
0000
0000
0000
1000
0000
0000
0000
1010
0000
0000
0000
0100
0000
0001
1000
0010
0100
0001
1000
0010
0000
0000
0000
,  // measure 56
1010
0000
0110
0000
0101
0010
1001
0000
0000
0000
0001
0020
0000
0000
0000
0030
,  // measure 57
1001
0000
0000
0000
0010
0000
0000
0000
1100
0000
0000
0000
0010
0000
0000
0000
0101
0000
0010
0000
1000
0000
0001
1000
0010
0100
0001
1000
0100
0000
0010
0000
,  // measure 58
0001
0010
0000
0100
1000
0000
0010
0100
0000
0001
1000
0000
0000
0011
0000
1100
,  // measure 59
0011
0000
0100
1000
0010
0100
0001
1000
0010
1000
0010
0100
0010
1000
0100
0010
,  // measure 60
0001
1000
0001
0100
0001
0010
0100
1000
0100
0010
0001
1000
0100
0010
0001
1000
,  // measure 61
0010
0100
0001
0100
0010
1000
0010
1000
0100
0010
0001
0100
0001
0100
0010
1000
,  // measure 62
0100
1000
0001
1000
0010
1000
0100
0010
0001
0100
0010
1000
0010
1000
0100
0010
,  // measure 63
0001
0100
0010
0100
0001
0010
0100
1000
0010
0100
0010
1000
0100
0010
0001
1000
,  // measure 64
0001
1000
0010
0100
0010
1000
0100
0010
0001
0100
0010
1000
0100
1000
0001
0100
,  // measure 65
0001
1000
0010
1000
0001
0100
0001
1000
0001
1000
0010
1000
0001
0100
0001
0010
,  // measure 66
1001
0100
1000
0010
0100
0001
0100
0010
1000
0100
1000
0001
0100
0010
1000
0100
,  // measure 67
0010
0001
1000
0010
0100
0010
1000
0100
0010
0001
0100
0010
0100
0001
0010
0100
,  // measure 68
1000
0010
0100
0010
1000
0100
0010
0100
1000
0001
0100
0001
1000
0001
1000
0010
,  // measure 69
0100
0001
0100
0010
1000
0100
0010
0001
1000
0010
0100
0001
0100
0001
1000
0100
,  // measure 70
1000
0100
0010
0001
0100
0010
1000
0100
1000
0001
1000
0010
1000
0001
0100
0001
,  // measure 71
0010
0100
1000
0010
0100
0010
1000
0100
0010
0001
0100
0001
0010
0100
1000
0010
,  // measure 72
0100
0001
0100
0010
1000
0100
0010
0001
1000
0010
0100
0001
0100
0010
1000
0100
,  // measure 73
0010
0001
0100
0001
0010
0100
1000
0010
1000
0100
1000
0001
0100
0001
1000
0001
,  // measure 74
1001
0010
0100
0001
1100
0001
0010
0100
1010
0100
0001
1000
0101
0010
0001
0100
,  // measure 75
1010
0100
0001
1000
0011
0100
0010
1000
0110
0001
0100
0001
1010
0100
0010
0001
,  // measure 76
0110
1000
0100
1000
0011
0100
0001
0010
1100
0010
0001
1000
0101
0010
0001
1000
,  // measure 77
0101
0010
1000
0100
1001
0010
0100
0001
1010
0100
0001
1000
0011
0100
0001
0010
,  // measure 78
1100
0010
0001
1000
0011
0100
0001
1000
0101
0010
1000
0001
1100
0001
1000
0100
,  // measure 79
0011
0100
1000
0010
1100
0001
0100
0010
1100
0001
1000
0010
0101
0010
1000
0100
,  // measure 80
0011
0100
1000
0010
1100
0001
0010
0100
1001
0100
1000
0010
1100
0001
0010
0100
,  // measure 81
1001
0000
0100
0000
0010
0000
0001
0000
1100
0000
0010
0000
0100
0000
0001
0000
1010
0000
0100
0000
0001
0000
0010
0001
1000
0010
0100
0001
0010
0000
0100
0000
,  // measure 82
1001
0010
0100
0001
1100
0001
0010
0100
1010
0100
0001
1000
0101
0010
0001
0100
,  // measure 83
1010
0100
0001
1000
0011
0100
0010
1000
0110
0001
0100
0001
1010
0100
0010
0001
,  // measure 84
0110
1000
0100
1000
0011
0100
0001
0010
1100
0010
0001
1000
0101
0010
0001
1000
,  // measure 85
0101
0010
1000
0100
1001
0010
0100
0001
1010
0100
0001
1000
0011
0100
0001
0010
,  // measure 86
1100
0010
0001
1000
0011
0100
0001
1000
0101
0010
1000
0001
1100
0001
1000
0100
,  // measure 87
0011
0100
1000
0010
1100
0001
0100
0010
1100
0001
1000
0010
0101
0010
1000
0100
,  // measure 88
0011
0100
1000
0010
1100
0001
0010
0100
1001
0100
1000
0010
1100
0001
0010
0100
,  // measure 89
1001
0000
0100
0000
0010
0000
0001
0000
1100
0000
0010
0000
0001
0000
1000
0000
0011
0000
1000
0000
0100
0000
0010
0001
1000
0100
0010
0001
1000
0000
0100
0000
,  // measure 90
1001
0100
1000
0001
0110
0001
1000
0010
1100
0001
0010
0001
1100
0010
0100
0010
,  // measure 91
1001
0100
0010
0001
1100
0010
0100
0001
1010
0100
1000
0010
0101
0010
1000
0100
,  // measure 92
1010
0001
1000
0010
1100
0001
0010
0100
1001
0010
0100
0001
1100
0010
1000
0100
,  // measure 93
0011
0100
1000
0010
0101
0010
1000
0100
0011
0100
1000
0001
0110
1000
0010
0100
,  // measure 94
0011
1000
0001
0100
1010
0100
0010
1000
0101
0010
1000
0100
0011
0100
1000
0001
,  // measure 95
0110
1000
0010
0100
1001
0010
0100
0001
1100
0010
1000
0100
0011
0100
1000
0010
,  // measure 96
0101
0010
1000
0100
0011
0100
1000
0001
0110
1000
0010
0100
0011
1000
0001
0100
,  // measure 97
1010
0000
0100
0000
0010
0000
1000
0000
0101
0000
0010
0000
1000
0000
0100
0000
0011
0000
0100
0000
1000
0000
0001
0000
1000
0010
0100
0001
0010
0100
1000
0000
,  // measure 98
0100
0010
0100
0001
1100
0010
1000
0100
0011
0100
1000
0010
0101
0010
1000
0100
,  // measure 99
0011
0100
1000
0001
0110
1000
0010
0100
0011
1000
0001
0100
1010
0100
0010
1000
,  // measure 100
0101
0010
1000
0100
0011
0100
1000
0001
0110
1000
0010
0100
1001
0010
0100
0001
,  // measure 101
1100
0010
1000
0100
0011
0100
1000
0010
0101
0010
1000
0100
0011
0100
1000
0001
,  // measure 102
0110
1000
0010
0100
0011
1000
0001
0100
1010
0100
0010
1000
0101
0010
1000
0100
,  // measure 103
0011
0100
1000
0001
0110
1000
0010
0100
1001
0010
0100
0001
1100
0010
1000
0100
,  // measure 104
0011
0100
1000
0010
0101
0010
1000
0100
0011
0100
1000
0001
0110
1000
0010
0100
,  // measure 105
0011
0000
1000
0000
0001
0000
0100
0000
1010
0000
0100
0000
0010
0000
1000
0000
0002
0000
0000
0000
0000
0000
0000
0000
0013
0100
1000
0010
0100
0001
0100
0000
,  // measure 106
0001
0010
0001
1000
0010
1000
0000
0001
0000
0010
0100
0000
1000
0100
1000
0000
,  // measure 107
0001
0100
0010
0100
0001
0010
0000
1000
0000
1000
0010
0000
0010
0100
0001
0010
,  // measure 108
0001
1000
0010
0100
0001
0010
0000
0010
0000
0010
0001
0000
0001
1000
0100
0010
,  // measure 109
0001
0010
0001
1000
0010
1000
0000
0001
0000
0010
0100
0000
1000
0100
1000
0001
,  // measure 110
1000
0100
0010
0100
1000
0010
0000
0010
0000
0010
0001
0000
1000
0010
0100
0001
,  // measure 111
0010
0100
1000
0100
0010
0001
0000
0001
0000
0001
0010
0000
0001
1000
0100
0010
,  // measure 112
0001
0010
0001
1000
0010
1000
0000
0001
0000
0010
0100
0000
1000
0100
1000
0100
,  // measure 113
0010
0000
0001
0000
0010
0000
0001
0000
0000
0000
0011
0000
0100
0000
1000
0000
0100
0000
1000
0000
0100
0000
1000
0000
0100
0000
0010
0001
1000
0010
0100
0001
,  // measure 114
1000
0000
0000
0000
;
